Contacto (1997)[DVDRip Latino][C.Ficcion.Drama][VS]

Contacto (1997)[DVDRip Latino][C.Ficcion.Drama][VS] Online DVDRip Latino, MEGA, Firedrive









Cita:




TÍTULO ORIGINAL Contact
AÑO 1997
DURACIÓN Trailers/Vídeos 150 min.
PAÍS Sección visual
DIRECTOR Robert Zemeckis
GUIÓN James V. Hart & Michael Goldenberg (Novela: Carl Sagan)
MÚSICA Alan Silvestri
FOTOGRAFÍA Don Burgess
REPARTO Jodie Foster, Matthew McConaughey, James Woods, John Hurt, Tom Skerritt, William Fichtner, David Morse, Angela Bassett, Rob Lowe
PRODUCTORA Warner Bros. Pictures
PREMIOS 1997: Nominada al Oscar: Mejor sonido
1997: Nominada al Globo de Oro: Mejor actriz drama (Jodie Foster)
GÉNERO Ciencia ficción. Drama | Extraterrestres




Cita:




Tras la prematura muerte de sus padres siendo una niña, Eleanor Arroway perdió la fe en Dios. Como contrapartida, ha concentrado toda su fe en la investigación: trabaja con un grupo de científicos que analizan ondas de radio procedentes del espacio exterior con el fin de encontrar señales de inteligencia extraterrestre. Su trabajo se ve recompensado cuando detecta una señal desconocida que parece contener las instrucciones de fabricación de una máquina que permitiría reunirse con los autores del mensaje. (FILMAFFINITY)






Cita:




GENERAL

Format : AVI
Format/Info : Audio Video Interleave
File size : 907 MiB
Duration : 2h 23mn
Overall bit rate : 884 Kbps
Writing application : VirtualDubMod 1.5.4.1 (build 2178/release)
Writing library : VirtualDubMod build 2178/release

Video
ID : 0
Format : MPEG-4 Visual
Format profile : Advanced Simple@L5
Format settings, BVOP : 1
Format settings, QPel : No
Format settings, GMC : No warppoints
Format settings, Matrix : Custom
Codec ID : XVID
Codec ID/Hint : XviD
Duration : 2h 23mn
Bit rate : 685 Kbps
Width : 672 pixels
Height : 288 pixels
Display aspect ratio : 2.35:1
Frame rate : 25.000 fps
Color space : YUV
Chroma subsampling : 4:2:0
Bit depth : 8 bits
Scan type : Progressive
Compression mode : Lossy
Bits/(Pixel*Frame) : 0.142
Stream size : 703 MiB (77%)
Writing library : XviD 1.2.1 (UTC 2008-12-04)

Audio
ID : 1
Format : AC-3
Format/Info : Audio Coding 3
Mode extension : CM (complete main)
Codec ID : 2000
Duration : 2h 23mn
Bit rate mode : Constant
Bit rate : 192 Kbps
Channel(s) : 2 channels
Channel positions : Front: L R
Sampling rate : 48.0 KHz
Bit depth : 16 bits
Compression mode : Lossy
Delay relative to video : 350ms
Stream size : 197 MiB (22%)
Alignment : Split accross interleaves
Interleave, duration : 96 ms (2.40 video frames)
Interleave, preload duration : 96 ms





Código:
http://www.listalinks.com/?L=45cd3dbd
Descomprimir con Winrar
Contacto (1997)[DVDRip Latino][C.Ficcion.Drama][VS] Online DVDRip Latino, MEGA, Firedrive

contact dvdrip latino firedrive -

Deja tu comentario!