TITULO ORIGINAL: Law Abiding Citizen
PAIS:
Estados Unidos
DIRECCION: F. Gary Gray
ACTORES:
Gerard Butler, Jamie Foxx, Viola Davis, Regina Hall, Leslie Bibb, Bruce McGill, Colm Meany.
GENERO:
Drama, Suspenso

Clyde Shelton es un hombre que ve cómo uno de los asesinos de su esposa e hija sale en libertad gracias a un acuerdo legal. Desolado por la noticia, iniciará una venganza contra los criminales y contra todos aquellos que han hecho posible el trato.


[YOUTUBE]2uv3Bj7Tj-M[/YOUTUBE]




Código:
General
Complete name : C:\Documents and Settings\Administrador\Mis documentos\Descargas\DownThem All\cisco\Dias de Ira-Ing.avi
Format : AVI
Format/Info : Audio Video Interleave
File size : 700 MiB
Duration : 1h 48mn
Overall bit rate : 899 Kbps
Writing application : VirtualDubMod 1.5.10.2 (build 2540/release)
Writing library : VirtualDubMod build 2540/release

Video
ID : 0
Format : MPEG-4 Visual
Format profile : Advanced Simple@L5
Format settings, BVOP : Yes
Format settings, QPel : No
Format settings, GMC : No warppoints
Format settings, Matrix : Default (H.263)
Muxing mode : Packed bitstream
Codec ID : DX50
Codec ID/Hint : DivX 5
Duration : 1h 48mn
Bit rate : 762 Kbps
Width : 640 pixels
Height : 256 pixels
Display aspect ratio : 2.500
Frame rate : 23.976 fps
Resolution : 8 bits
Colorimetry : 4:2:0
Scan type : Progressive
Bits/(Pixel*Frame) : 0.194
Stream size : 593 MiB (85%)
Writing library : XviD 1.0.3 (UTC 2004-12-20)

Audio
ID : 1
Format : MPEG Audio
Format version : Version 1
Format profile : Layer 3
Mode : Joint stereo
Format_Settings_ModeExtension : MS Stereo
Codec ID : 55
Codec ID/Hint : MP3
Duration : 1h 48mn
Bit rate mode : Constant
Bit rate : 128 Kbps
Channel(s) : 2 channels
Sampling rate : 48.0 KHz
Stream size : 99.6 MiB (14%)
Alignment : Aligned on interleaves
Interleave, duration : 42 ms (1.00 video frame)
Interleave, preload duration : 504 ms








DESCARGAR!!

DESCARGAR AQUI