[DVDRip] La Carrera de la Muerte 3 : Infierno (2012) – BDRip / Español Latino


^^^Descargar [DVDRip] La Carrera de la Muerte 3 : Infierno (2012) – BDRip / Español Latino^^^

La Carrera de la Muerte 3 : Infierno (2012) – BDRip / Español Latino DVDRip Español Latino, MEGA, Torrent


TÍTULO ORIGINAL: Death Race: Inferno (Death Race 3)
AÑO: 2012
PAÍS: USA
DIRECTOR: Roel Reiné
GUIÓN: Tony Giglio
MÚSICA: Trevor Morris
FOTOGRAFÍA: Roel Reiné, Wayne Shields
REPARTO: Luke Goss, Ving Rhames, Danny Trejo, Dougray Scott, Tanit Phoenix, Robin Shou, Sean Cameron Michael, Fred Koehler, Brandon Livanos
GÉNERO: Acción | Automovilismo. Secuela

SINOPSIS:

Condenado por asesinar policías, Carl Lucas -también conocido como Frankenstein- es el nuevo piloto estrella de Death Race, una carrera mortal en el que se juega salir libre de prisión juto a su equipo de mecánicos. Por ello Lucas se sumerge en un nuevo concurso más cruel que cualquier cosa que haya experimentado antes. Se enfrentará con los adversarios más despiadados en una carrera en el desierto de Kalahari en el Sur de África…

INFORMACIÓN DE AUDIO Y VIDEO:



Código:
Video
ID : 0
Format : MPEG-4 Visual
Format profile : Advanced Simple@L5
Format settings, BVOP : 2
Format settings, QPel : No
Format settings, GMC : No warppoints
Format settings, Matrix : Default (H.263)
Codec ID : XVID
Codec ID/Hint : XviD
Duration : 1h 45mn
Bit rate : 799 Kbps
Width : 640 pixels
Height : 352 pixels
Display aspect ratio : 16:9
Frame rate : 23.976 fps
Color space : YUV
Chroma subsampling : 4:2:0
Bit depth : 8 bits
Scan type : Progressive
Compression mode : Lossy
Bits/(Pixel*Frame) : 0.148
Stream size : 601 MiB (86%)
Writing library : XviD 1.2.1 (UTC 2008-12-04)
Audio
ID : 1
Format : MPEG Audio
Format version : Version 1
Format profile : Layer 3
Mode : Joint stereo
Codec ID : 55
Codec ID/Hint : MP3
Duration : 1h 45mn
Bit rate mode : Constant
Bit rate : 128 Kbps
Channel(s) : 2 channels
Sampling rate : 48.0 KHz
Compression mode : Lossy
Stream size : 96.3 MiB (14%)
Alignment : Aligned on interleaves
Interleave, duration : 167 ms (4.00 video frames)
Interleave, preload duration : 216 ms
Title : Death.Race.Inferno.2012.BD.LATiNO 128Kbps www.intercambiosvirtuales.org
Writing library : LAME3.99r
Encoding settings : -m j -V 4 -q 2 -lowpass 17 -b 128
SCREENSHOTS:





DESCARGA:

http://***********.net/download/65817.6…sPLat.avi.html

Si el link cae, me avisan y lo vuelvo a subir.
Saludos, compas. La Carrera de la Muerte 3 : Infierno (2012) – BDRip / Español Latino DVDRip Español Latino, MEGA, Torrent

, carrera de la muerte 3 dvd, descargar la pelicula de la carrera de muerte 3 spanish con torrent, la carrera de la muerte 3 dvd, la carrera de la muerte 3 katrina, katrina carrera de la muerte, carrera de la muerte 3 katrina, catrina de la carrera de la muerte

^^^Descargar [DVDRip] La Carrera de la Muerte 3 : Infierno (2012) – BDRip / Español Latino^^^

Deja tu comentario!