[DVDRip] Monsters, Inc. (2001) [3D SBS][BDRip 1080p][Español Latino 5.1/Ingles]


>>>Descargar [DVDRip] Monsters, Inc. (2001) [3D SBS][BDRip 1080p][Español Latino 5.1/Ingles]<<<

Monsters, Inc. (2001) [3D SBS][BDRip 1080p][Español Latino 5.1/Ingles] DVDRip Latino MEGA





Monsters Inc. es la mayor empresa de miedo del mundo, y James P. Sullivan es uno de sus mejores empleados. Asustar a los niños no es un trabajo fácil, ya que todos creen que los niños son tóxicos y no pueden tener contacto con ellos. Pero un día una niña se cuela sin querer en la empresa, provocando el caos.



Título: Monstruos, S.A.
Título original: Monsters, Inc.
País: USA
Estreno en USA: 19/12/2012
Estreno en España: 08/02/2002
Productora: Walt Disney Pictures, Pixar Animation Studios
Director: Pete Docter, Lee Unkrich, David Silverman
Guión: Andrew Stanton, Daniel Gerson
Reparto: (Voces de) Billy Crystal, John Goodman, Mary Gibbs, Steve Buscemi, James Coburn, Jennifer Tilly





Código:
General
Unique ID : 246572191860742548891091863712690776126 (0xB98013A793D7AFB297DEC741483AA83E)
Complete name : Monsters INC 2011 3D SBS Latino Chamako.mkv
Format : Matroska
Format version : Version 2
File size : 8.66 GiB
Duration : 1h 32mn
Overall bit rate : 13.5 Mbps
Movie name : wWw.ReleseTV.NET – Monsters INC 2001 3D SBS 1080p Latino By Chamako
Encoded date : UTC 2013-02-06 22:31:57
Writing application : mkvmerge v3.4.0 (‘Rapunzel’) built on May 15 2010 09:38:20
Writing library : libebml v0.8.0 + libmatroska v0.9.0
Video
ID : 1
Format : AVC
Format/Info : Advanced Video Codec
Format profile : [email protected]
MultiView_Count : 2
MultiView_Layout : Right Eye
Format settings, CABAC : Yes
Format settings, ReFrames : 4 frames
Codec ID : V_MPEG4/ISO/AVC
Duration : 1h 32mn
Bit rate : 11.9 Mbps
Width : 1 920 pixels
Height : 1 080 pixels
Display aspect ratio : 16:9
Frame rate mode : Constant
Frame rate : 23.976 fps
Color space : YUV
Chroma subsampling : 4:2:0
Bit depth : 8 bits
Scan type : Progressive
Bits/(Pixel*Frame) : 0.239
Stream size : 7.66 GiB (88%)
Title : Chamako – Monsters 2011 INC 3D
Writing library : x264 core 129 r2245 bc13772
Encoding settings : cabac=1 / ref=4 / deblock=1:-3:-3 / analyse=0×3:0×113 / me=umh / subme=9 / psy=1 / psy_rd=1.00:0.15 / mixed_ref=1 / me_range=16 / chroma_me=1 / trellis=1 / 8x8dct=1 / cqm=0 / deadzone=21,11 / fast_pskip=1 / chroma_qp_offset=-3 / threads=12 / lookahead_threads=2 / sliced_threads=0 / nr=0 / decimate=1 / interlaced=0 / bluray_compat=0 / constrained_intra=0 / bframes=6 / b_pyramid=2 / b_adapt=1 / b_bias=0 / direct=3 / weightb=1 / open_gop=0 / weightp=2 / keyint=250 / keyint_min=23 / scenecut=40 / intra_refresh=0 / rc_lookahead=40 / rc=crf / mbtree=1 / crf=16.0 / qcomp=0.60 / qpmin=10 / qpmax=69 / qpstep=4 / vbv_maxrate=40000 / vbv_bufsize=30000 / crf_max=0.0 / nal_hrd=none / ip_ratio=1.40 / aq=1:1.00
Default : No
Forced : No
Audio #1
ID : 2
Format : AC-3
Format/Info : Audio Coding 3
Mode extension : CM (complete main)
Format settings, Endianness : Big
Codec ID : A_AC3
Duration : 1h 32mn
Bit rate mode : Constant
Bit rate : 640 Kbps
Channel(s) : 6 channels
Channel positions : Front: L C R, Side: L R, LFE
Sampling rate : 48.0 KHz
Bit depth : 16 bits
Compression mode : Lossy
Stream size : 422 MiB (5%)
Title : Latino 5.1
Language : Spanish
Default : Yes
Forced : Yes
Audio #2
ID : 3
Format : AC-3
Format/Info : Audio Coding 3
Mode extension : CM (complete main)
Format settings, Endianness : Big
Codec ID : A_AC3
Duration : 1h 32mn
Bit rate mode : Constant
Bit rate : 640 Kbps
Channel(s) : 6 channels
Channel positions : Front: L C R, Side: L R, LFE
Sampling rate : 48.0 KHz
Bit depth : 16 bits
Compression mode : Lossy
Stream size : 422 MiB (5%)
Title : Chamako – English
Language : English
Default : No
Forced : No
Text
ID : 4
Format : UTF-8
Codec ID : S_TEXT/UTF8
Codec ID/Info : UTF-8 Plain Text
Title : SpNISH
Default : Yes
Forced : No
Menu
00:00:00.000 : en:00:00:00.000
00:01:33.093 : en:00:01:33.093
00:03:07.604 : en:00:03:07.604
00:04:51.124 : en:00:04:51.124
00:07:16.936 : en:00:07:16.936
00:09:11.509 : en:00:09:11.509
00:10:43.601 : en:00:10:43.601
00:11:53.796 : en:00:11:53.796
00:17:25.795 : en:00:17:25.795
00:20:06.080 : en:00:20:06.080
00:22:03.781 : en:00:22:03.781
00:25:48.422 : en:00:25:48.422
00:28:34.963 : en:00:28:34.963
00:31:06.489 : en:00:31:06.489
00:34:49.963 : en:00:34:49.963
00:36:55.630 : en:00:36:55.630
00:38:50.286 : en:00:38:50.286
00:40:27.884 : en:00:40:27.884
00:43:34.278 : en:00:43:34.278
00:45:29.727 : en:00:45:29.727
00:48:07.426 : en:00:48:07.426
00:50:37.159 : en:00:50:37.159
00:54:41.278 : en:00:54:41.278
00:57:29.446 : en:00:57:29.446
01:03:42.026 : en:01:03:42.026
01:06:25.022 : en:01:06:25.022
01:07:26.375 : en:01:07:26.375
01:13:52.136 : en:01:13:52.136
01:17:49.581 : en:01:17:49.581
01:21:24.921 : en:01:21:24.921
01:24:07.959 : en:01:24:07.959
01:25:10.230 : en:01:25:10.230








ARCHIVO DE RECUPERACIÓN + 1 SFV DE COMPROBACIÓN DE RAR
Añadir el link al Jdownloader o MiPony, y empieza a descargar del host que mas te agrade
SERVIDORES DISPONIBLES

Monsters, Inc. (2001) [3D SBS][BDRip 1080p][Español Latino/Ingles]

CONTRASEÑA: chamako (todo minusculas)

Si Algun link cae solo enviame un MP con el link del post y lo resubiré

Monsters, Inc. (2001) [3D SBS][BDRip 1080p][Español Latino 5.1/Ingles] DVDRip Latino MEGA

monsters inc 2001 3d bdrip 1080p - monsters inc 2001 3d bdrip 1080p hou -

Deja tu comentario!