Hotel Transylvania [2012][DVDRip][Latino][1 Link][LB]


>>>Descargar Hotel Transylvania [2012][DVDRip][Latino][1 Link][LB]<<<

Hotel Transylvania [2012][DVDRip][Latino][1 Link][LB] DVDRip Español Latino, MEGA, Torrent





Título original: Hotel Transylvania
País: USA
Estreno en USA: 28/09/2012
Estreno en España: 26/10/2012
Productora: Sony Pictures Animation, Columbia Pictures
Director: Genndy Tartakovsky
Guión: Don Rhymer
Audio: Español Latino
Género: Animación 3D, Comedia
Calidad: DVDRip





Código:
General
Complete name : H0ot333lTrR4n.avi
Format : AVI
Format/Info : Audio Video Interleave
File size : 700 MiB
Duration : 1h 31mn
Overall bit rate : 1 070 Kbps
Movie name : Hotel.Transylvania.2012.DVDRip.LATiNO.XviD-Johual
Recorded date : 10-01-2013
Writing application : VirtualDubMod 1.5.10.2 (build 2542/release) VirtualDubMod build 2542/release
Original source form/Name : Movie
Video
ID : 0
Format : MPEG-4 Visual
Format profile : Advanced Simple@L5
Format settings, BVOP : 2
Format settings, QPel : No
Format settings, GMC : No warppoints
Format settings, Matrix : Default (H.263)
Codec ID : XVID
Codec ID/Hint : XviD
Duration : 1h 31mn
Bit rate : 933 Kbps
Width : 640 pixels
Height : 352 pixels
Display aspect ratio : 16:9
Frame rate : 23.976 fps
Color space : YUV
Chroma subsampling : 4:2:0
Bit depth : 8 bits
Scan type : Progressive
Compression mode : Lossy
Bits/(Pixel*Frame) : 0.173
Stream size : 611 MiB (87%)
Writing library : XviD 61
Audio
ID : 1
Format : MPEG Audio
Format version : Version 1
Format profile : Layer 3
Mode : Joint stereo
Mode extension : MS Stereo
Codec ID : 55
Codec ID/Hint : MP3
Duration : 1h 31mn
Bit rate mode : Constant
Bit rate : 128 Kbps
Channel(s) : 2 channels
Sampling rate : 48.0 KHz
Compression mode : Lossy
Stream size : 83.8 MiB (12%)
Alignment : Aligned on interleaves
Interleave, duration : 42 ms (1.00 video frame)
Interleave, preload duration : 504 ms
Writing library : LAME3.99r
Encoding settings : -m j -V 4 -q 2 -lowpass 17 -b 128
Language : un


Bienvenidos a Hotel Transylvania, el fastuoso resort de cinco “estacas” de Drácula (Sandler), donde los monstruos y sus familias pueden darse la gran vida, libres de los entrometidos ojos de los humanos. Pero hay un pequeño detalle sobre Drácula que hay que saber: no solo es el Príncipe de las Tinieblas, también es papá. Padre sobreprotector de su hija adolescente, Mavis, para la que elabora complicadas historias de peligros que acechan con el objetivo de disuadir el espíritu aventurero de su niña. Como refugio para Mavis, abre el Hotel Transylvania, donde su hija y algunos de los monstruos más famosos del mundo -Frankenstein y su novia, la Momia, el Hombre Invisible, una familia de hombres lobo y muchos más- pueden relajarse en paz y tranquilidad. Para Drac, atender a todos esos monstruos legendarios no es problema, pero su mundo se desmorona cuando un jovencito normal y corriente tropieza por casualidad con el hotel y se queda prendado de Mavis.







http://***********.net/download/66556.6…TrR4n.avi.html
Hotel Transylvania [2012][DVDRip][Latino][1 Link][LB] DVDRip Español Latino, MEGA, Torrent


Deja tu comentario!